#TITLE:COLORS;
#SUBTITLE:- Code Geass 1st Opening;
#ARTIST:FLOW;
#TITLETRANSLIT:;
#SUBTITLETRANSLIT:;
#ARTISTTRANSLIT:;
#CREDIT:koa5001;
#BANNER:COLORS banner.png;
#BACKGROUND:COLORS-bg.png;
#LYRICSPATH:COLOURS.lrc;
#CDTITLE:KOA_cdtitle.png;
#MUSIC:Code Geass - Colors (TV Size).mp3;
#OFFSET:-2.800;
#SAMPLESTART:58.577;
#SAMPLELENGTH:21.500;
#SELECTABLE:YES;
#BPMS:0.000=136.000;
#STOPS:;
#BGCHANGES:0.000=COLORS.avi=1.000=1=0=0,
191.500=COLORS-bg.png=1.000=1=0=0,
99999=-nosongbg-=1.000=0=0=0 // don't automatically add -songbackground-
;
// cache tags:
#FIRSTBEAT:0.000;
#LASTBEAT:196.000;
#SONGFILENAME:songs/Otaku's Dream 3rd Anime Mix/[koa5001] COLORS - Code Geass 1st OP/COLORS.sm;
#HASMUSIC:1;
#HASBANNER:1;
#MUSICLENGTH:93.754;
// end cache tags

//---------------dance-single - ----------------
#NOTES:
     dance-single:
     :
     Hard:
     9:
     0.584,0.575,0.171,0.139,0.171,354.000,16.000,13.000,0.000,0.000:
1010
0000
1000
0000
0100
1000
0000
0010
0000
0100
0000
0001
0010
0000
0001
0000
,
0011
0000
0010
0000
0100
1000
0000
0100
0000
0010
0000
0001
0100
0000
0001
0000
,
0101
0000
0100
0000
0010
1000
0000
0001
0000
1000
0000
0100
0010
0000
0100
0000
,
1000
0010
1000
0100
1000
0001
1000
0000
0000
0000
0001
0000
1000
0000
0001
0000
,
1000
0010
1010
0000
0010
1000
0010
0100
,
0010
1000
0100
0010
0100
1000
0010
0100
,
0001
0010
0011
0000
0100
0001
0100
0010
,
0001
0100
0010
2000
0000
0000
0000
3001
,
0010
0100
0010
0001
0100
0010
1000
0001
,
0010
1000
0010
0001
0100
1000
0100
0001
,
1000
0000
0100
0000
0010
0001
0000
0100
0000
0010
0000
1000
0100
0000
1000
0000
,
0010
0000
0100
0000
0001
0010
0000
0001
0000
0100
0000
0010
1000
0000
0001
0000
,
1001
0000
0001
0100
1000
0100
0001
0010
,
0100
1100
0010
0101
,
0010
1000
0100
0010
0100
1000
0010
0100
,
0001
0010
0100
2000
0000
0000
3001
0000
,
1001
0000
1000
0100
0001
0100
1000
0010
,
0100
0011
0100
1010
,
0010
0000
0100
0000
0001
0000
0010
0000
0100
0000
0010
0000
0001
0000
1000
0010
,
1000
0100
0010
0001
2000
0000
3001
1000
,
0100
1000
0001
1000
0010
1000
0001
0010
,
0100
0010
0001
0100
0010
0100
0001
1000
,
0010
1000
0001
1000
0100
1000
0001
1000
,
0010
0100
0010
0020
0000
0000
0130
0001
,
0010
0001
1000
0001
0100
0001
1000
0010
,
0100
0010
1000
0100
0010
0100
1000
0001
,
1000
0010
0100
0001
0100
0010
1000
0100
,
0010
0001
0100
0020
0000
0000
0130
0000
,
0001
0010
0001
0010
0100
0010
0100
1000
,
0010
1000
0010
0100
0001
0100
0001
0010
,
0001
0100
0010
1000
0100
0010
0100
2000
,
0000
0000
0000
3000
0000
1000
0001
1000
,
0001
0010
0011
0000
0010
0001
0010
0100
,
0010
0001
0100
0010
0100
0001
0010
0100
,
1000
0010
1010
0000
0100
0001
0100
0010
,
1000
0100
0010
0002
0000
0000
1003
0001
,
1000
0100
0001
0100
1000
0100
0010
0100
,
1000
0010
0001
0010
1000
0010
0100
0010
,
1000
0100
1000
0010
0100
0001
0010
0001
,
0200
0300
0020
0030
0200
0301
0010
0100
,
1000
0001
1001
0000
0001
0010
0001
0100
,
0010
1000
0100
1000
0010
0100
0001
0010
,
0100
1000
1100
0000
1000
0100
0010
0001
,
0100
0010
1000
0002
0000
0000
0000
1003
,
0010
0100
0010
1000
0100
0010
0001
1000
,
0010
0001
0010
1000
0100
0001
0100
1000
,
0010
0000
0100
0000
0001
0010
0000
0001
0000
0100
0000
0010
1000
0000
0001
0000
,
1000
0000
0100
0000
0010
0001
0000
0100
0000
0010
0000
1000
0001
0000
2002
0000
,
0000
0000
0000
0000
,
3003
0000
0000
0000
;

//---------------dance-single - ----------------
#NOTES:
     dance-single:
     :
     Medium:
     7:
     0.450,0.523,0.117,0.235,0.075,262.000,11.000,22.000,0.000,0.000:
0001
0000
0010
0000
0021
0000
0000
0001
0000
0031
0000
0000
0010
0000
0100
0000
,
1000
0000
0010
0000
2010
0000
0000
0010
0000
3010
0000
0000
0100
0000
0001
0000
,
1000
0000
0100
0000
2100
0000
0000
0100
0000
3100
0000
0000
0010
0000
0001
0000
,
0100
0010
1000
0001
0000
1000
0010
0100
,
0001
0000
0101
0000
0001
0010
0000
0100
,
0000
1000
0000
0001
0000
1000
0000
0010
,
0200
0000
0310
0000
1000
0000
0100
0010
,
0000
0001
1000
0002
0000
0003
0000
0010
,
0100
0000
0010
0001
0000
1000
0000
0001
,
0000
1000
0010
0100
0001
0010
0100
1000
,
0010
0000
0100
0000
0210
0000
0000
0010
0000
0310
0000
0000
0100
0000
0001
0000
,
1000
0000
0001
0000
2001
0000
0000
0001
0000
3001
0000
0000
1000
0000
0010
0000
,
1010
0000
0010
0000
0100
0000
0001
1000
,
0001
0010
0100
1000
,
0020
0000
0100
0000
0130
0010
1000
0001
,
0020
0000
0000
0130
0000
0000
0010
0000
,
0001
0000
0100
0000
0010
0000
1000
0001
,
1000
0100
0010
0001
,
0200
0000
0001
0000
1000
0000
0301
0010
,
0100
1000
0010
0100
0001
0000
1000
0001
,
0010
0001
0000
1000
0100
1000
0000
0001
,
0100
0001
0000
1000
0010
1000
0000
0100
,
0010
0100
0000
1000
0001
1000
0000
0010
,
0100
0010
1000
0002
0000
0000
1003
0001
,
0100
0001
0000
1000
0100
1000
0000
0001
,
0010
0001
0000
1000
0010
1000
0000
0100
,
0020
0000
0130
1000
0000
0001
0000
1000
,
0000
0010
0100
0002
0000
0000
0003
0000
,
1000
0100
0010
0001
0000
0010
0100
1000
,
0000
0010
0100
0001
0000
0010
0001
0100
,
0010
1000
0100
0010
0000
0001
1000
0002
,
0000
0000
0000
0003
0000
0100
0010
1000
,
0100
0000
1100
0000
1000
0010
0000
0100
,
0000
0001
0000
0010
0000
0100
0000
0010
,
0002
0000
1003
0000
0001
0000
0100
0010
,
0000
0100
0001
2000
0000
0000
3000
0001
,
0100
0000
1000
0100
0000
0001
0000
1000
,
0100
0000
0001
0100
0000
1000
0000
0001
,
2000
0000
0001
0000
3001
0010
0100
0010
,
0001
0000
0100
0000
0010
1000
0100
0010
,
0001
0000
0011
0000
0010
0100
0000
1000
,
0000
0010
0000
0100
0000
0010
0000
1000
,
0002
0000
1003
0000
0001
0000
0010
0100
,
0000
0010
0001
2000
0000
3000
0000
0001
,
1000
0000
0100
0010
0000
0001
0000
0010
,
0000
0100
1000
0010
0100
0001
0010
0001
,
0100
0000
0010
0000
0120
0000
0000
0100
0000
0130
0000
0000
0010
0000
0100
0000
,
0001
0000
1000
0000
1002
0000
0000
1000
0000
1003
0000
0000
0001
0000
2000
0000
,
0000
0000
0000
0000
,
3000
0000
0000
0000
;

//---------------dance-single - ----------------
#NOTES:
     dance-single:
     :
     Easy:
     4:
     0.318,0.340,0.213,0.128,0.000,177.000,20.000,12.000,0.000,0.000:
0002
0000
0000
0003
,
0020
0000
0000
0030
,
0200
0000
0000
0300
,
1000
0002
0000
0003
,
1000
1001
1000
0010
,
0100
0001
0010
0100
,
1000
1100
1000
0100
,
0010
0002
1000
1003
,
0001
0100
1000
0100
,
0001
0010
1000
0010
,
0001
0001
0100
0100
,
0010
0010
1000
1000
,
2010
0010
0010
3010
,
1000
0100
0010
0001
,
0100
0010
0100
0001
,
0010
0100
1000
0001
,
1002
1000
1000
1003
,
0001
0100
0010
1000
,
0100
0010
0100
1000
,
0010
0100
0001
0001
,
1000
1010
0010
1010
,
0100
0101
0001
0101
,
0010
0011
0001
0011
,
0100
1100
1000
1100
,
1000
1001
0001
1001
,
0100
0110
0010
0110
,
0010
1000
0001
1000
,
0100
0010
0002
0003
,
0010
0001
0100
0010
,
1000
0100
1000
0010
,
0100
0000
0001
0000
0010
0000
0001
2000
,
0000
0000
0000
3000
,
0001
1001
0001
1000
,
0001
0010
0100
1000
,
0010
0100
0100
0010
,
1000
0100
0010
0001
,
0100
0100
0010
0010
,
1000
1000
0001
0001
,
1000
0100
0001
0100
,
1000
0010
0001
0010
,
1000
1001
1000
0001
,
1000
0010
0100
0001
,
0010
0100
0010
0001
,
0100
0010
2000
3000
,
0001
0010
0001
0100
,
0010
1000
0100
1000
,
0010
0010
0100
0100
,
0001
0000
1000
0000
0001
0000
1001
2002
,
0000
0000
0000
0000
,
3003
0000
0000
0000
;
